ncis daredevil Star Trek Discovery mr robot en español dtone High Castle s03e07 0 Mile 22 2160p It 1080p 2018 Survivor the flash s05e03 ettv the good doctor supergirl the walking dead Flash great british bake off s09e09 DTOne better call saul etmovies 9-1-1 s02e04 1080p YIFY Vikings Manifest doctor who it 2017 shameless legends of tomorrow the walking dead s09e03 Supernatural this is us wwe incredibles 2 flash s05e03 NFL family guy hindi Ufc evo star trek discovery español big bang theory español venom fgt ethd Ethd Arrow s07e02 greys anatomy mayans season complete the big bang theory the flash american horror story Scorpion empire porn windows 10 Game Of Thrones lethal weapon lucifer south park ddr big bang theory Evo etrg arrow 2018 ita blindspot walking dead ita 
Warning! Do not Download Without a VPN!
Your IP Address is .   Location is
Download and surf securely, stream unlimited and protect your personal data!
We strongly recommend using SpyOFF VPN!
Become Anonymous with SpyOFF
ETTV Recommended TV Shows
SEAL.Team.S02E04.HDTV.x264-SHiTSPREAD[ettv] torrent
Greys.Anatomy.S15E05.HDTV.x264-KILLERS[ettv] torrent
Chicago.Fire.S07E05.HDTV.x264-SVA[ettv] torrent
American.Horror.Story.S08E07.WEBRip.x264-TBS[ettv] torrent

ETTV Recommended Xvid
Mile.22.2018.HDRip.XviD.AC3-EVO[EtMovies] torrent
The.Scorpion.King.Book.of.Souls.2018.HDRip.XViD-ETRG torrent
BlacKkKlansman.2018.HDRip.XViD.AC3-ETRG torrent
A.Happening.of.Monumental.Proportions.2018.HDRip.XViD-ETRG torrent

ETTV Recommended HD
Incredibles.2.2018.1080p.WEB-DL.DD5.1.H264-CMRG[EtHD] torrent
BlacKkKlansman.2018.1080p.WEB-DL.DD5.1.H264-CMRG[EtHD] torrent
Scorpion.King.The.Book.of.Souls.2018.1080p.WEB-DL.H264.AC3-EVO[EtHD] torrent
Mile.22.2018.1080p.HDRip.X264.AC3-EVO[EtHD] torrent

ETTV Recommended UHD
Constantine.City.of.Demons.2018.2160p.BluRay.x265.10bit.HDR.DTS-HD.MA.5.1-SWTYBLZ[EtHD] torrent
Your.Name.2016.2160p.UHD.BluRay.x265-VALiS[EtHD] torrent
Peter.Rabbit.2018.PLDUB.DUAL.2160p.UHD.BluRay.x265-FLAME[EtHD] torrent
Death.Wish.2018 BluRay 2160p DTS MA5 1 x265 10bit-CHD[EtHD] torrent

ETTV Recommended Cam
Bad Times at the El Royale 2018.HDCAM.XViD.AC3-ETRG torrent
Goosebumps 2 Haunted Halloween 2018 HDTS.x264.AC3-ETRG torrent
Halloween 2018.HDCAM.XViD.AC3-ETRG torrent
Night School 2018 HDTS XViD AC3-ETRG torrent

ETTV Recommended Foreign
The Avengers Trilogy (2012-2018) 1080p BluRay x264 Dual Audio [Hindi - English] DD5.1 - ESUB ~ Ranvijay torrent
Naa.Bangaaru.Talli.2013.1080p.NF.WebDL.AVC.DDP.5.1-DTOne torrent
Insidious The Last Key (2017) 1080p BluRay x264 Dual Audio [Hindi DD5.1 640 Kbps - English DD5.1] - MSUBS ~ Ranvijay torrent
Chotay Shah 2016 Hindi Untouched WebDL 1080p x264 - mkvCinemas torrent

Social


Download Torrent "Family Guy (1999) Season 15 S15 (1080p WEB-DL x265 HEVC 10bit AAC 5.1 ImE) ..."

IMDB Details
Description:

N/A

Genre:

N/A

Download Torrent (Magnet)
Download Torrent (File)
Seeds: 148
Leechers: 191
Completed: 1,121 
Last Checked: 09-10-2018 06:13:52


Loading...
Details
Title:Family Guy (1999) Season 15 S15 (1080p WEB-DL x265 HEVC 10bit AAC 5.1 ImE) ...
Description:


Note from Encoder:




Encode Screenshots (Click for full quality)




Media Information
General
Format                                   : Matroska
Format version                           : Version 4 / Version 2
File size                                : 204 MiB
Duration                                 : 21 min 35 s
Overall bit rate                         : 1 320 kb/s
Encoded date                             : UTC 2016-09-26 23:10:58
Writing application                      : mkvmerge v9.2.0 ('Photograph') 64bit
Writing library                          : libebml v1.3.3 + libmatroska v1.4.4

Video
ID                                       : 1
Format                                   : HEVC
Format/Info                              : High Efficiency Video Coding
Format profile                           : Main [email protected]@Main
Codec ID                                 : V_MPEGH/ISO/HEVC
Duration                                 : 21 min 35 s
Bit rate                                 : 1 001 kb/s
Width                                    : 1 920 pixels
Height                                   : 1 080 pixels
Display aspect ratio                     : 16:9
Frame rate mode                          : Constant
Frame rate                               : 23.976 (24000/1001) FPS
Color space                              : YUV
Chroma subsampling                       : 4:2:0
Bit depth                                : 10 bits
Bits/(Pixel*Frame)                       : 0.020
Stream size                              : 155 MiB (76%)
Title                                    : Encoded by: ImEverlasting
Writing library                          : x265 2.0+2-70581d6cd065:[Windows][MSVC 1900][64 bit] 10bit
Encoding settings                        : wpp / ctu=64 / min-cu-size=8 / max-tu-size=32 / tu-intra-depth=1 / tu-inter-depth=1 / me=3 / subme=3 / merange=57 / no-rect / no-amp / max-merge=2 / temporal-mvp / no-early-skip / rskip / rdpenalty=0 / no-tskip / no-tskip-fast / strong-intra-smoothing / no-lossless / no-cu-lossless / no-constrained-intra / no-fast-intra / open-gop / no-temporal-layers / interlace=0 / keyint=250 / min-keyint=23 / scenecut=40 / rc-lookahead=30 / lookahead-slices=6 / bframes=8 / bframe-bias=0 / b-adapt=2 / ref=3 / limit-refs=3 / no-limit-modes / weightp / no-weightb / aq-mode=1 / qg-size=32 / aq-strength=1.00 / cbqpoffs=0 / crqpoffs=0 / rd=3 / psy-rd=2.00 / rdoq-level=0 / psy-rdoq=0.00 / no-rd-refine / signhide / deblock=0:0 / sao / no-sao-non-deblock / b-pyramid / cutree / no-intra-refresh / rc=2 / pass / bitrate=1001 / qcomp=0.60 / qpmin=0 / qpmax=51 / qpstep=4 / cplxblur=20.0 / qblur=0.5 / ipratio=1.40 / pbratio=1.30
Default                                  : Yes
Forced                                   : No

Audio
ID                                       : 2
Format                                   : AAC
Format/Info                              : Advanced Audio Codec
Format profile                           : LC
Codec ID                                 : A_AAC
Duration                                 : 21 min 35 s
Bit rate                                 : 316 kb/s
Channel(s)                               : 6 channels
Channel positions                        : Front: L C R, Side: L R, LFE
Sampling rate                            : 48.0 kHz
Frame rate                               : 46.875 FPS (1024 spf)
Compression mode                         : Lossy
Delay relative to video                  : 20 ms
Stream size                              : 48.8 MiB (24%)
Language                                 : English
Default                                  : No
Forced                                   : No

Subtitle
ID                                       : 3
Format                                   : UTF-8
Codec ID                                 : S_TEXT/UTF8
Codec ID/Info                            : UTF-8 Plain Text
Duration                                 : 20 min 53 s
Bit rate                                 : 122 b/s
Count of elements                        : 570
Stream size                              : 18.7 KiB (0%)
Language                                 : English
Default                                  : No
Forced                                   : No

Source Information
Release : Various Sources



Note from QxR:
Whilst we are happy for our releases to be re-posted on a platform we aren't on, please do so in an 'as-is' format. We ask that you do not create a new torrent, include all descriptions you see above including the QxR logo, tags, notes and screenshots. If you'd like to become a permanent poster on a website we don't post to, feel free to get in contact with a QxR member.
Category:TV > HEVC/x265
Lang:English  English
Total Size:4.39 GB
Info Hash:9c92bdeaa4f1925303e0e5f1c2e7163b6671b998
Added By:QxR
Date Added:09-10-2018 06:13:48

Files

File List: 
 File Size
Family Guy (1999) - S15E01 - The Boys in the Band (1080p WEB-DL x265 ImE).mkv204 MB
Family Guy (1999) - S15E02 - Bookie of the Year (1080p WEB-DL x265 ImE).mkv204 MB
Family Guy (1999) - S15E03 - American Gigg-olo (1080p WEB-DL x265 ImE).mkv205 MB
Family Guy (1999) - S15E04 - Inside Family Guy (1080p WEB-DL x265 ImE).mkv233 MB
Family Guy (1999) - S15E05 - Chris Has Got a Date, Date, Date, Date, Date (1080p WEB-DL x265 ImE).mkv232 MB
Family Guy (1999) - S15E06 - Hot Shots (1080p WEB-DL x265 ImE).mkv232 MB
Family Guy (1999) - S15E07 - High School English (1080p WEB-DL x265 ImE).mkv233 MB
Family Guy (1999) - S15E08 - Carter and Tricia (1080p WEB-DL x265 ImE).mkv233 MB
Family Guy (1999) - S15E09 - How the Griffin Stole Christmas (1080p WEB-DL x265 ImE).mkv232 MB
Family Guy (1999) - S15E10 - Passenger Fatty-Seven (1080p WEB-DL x265 ImE).mkv251 MB
Family Guy (1999) - S15E11 - Gronkowsbees (1080p WEB-DL x265 ImE).mkv233 MB
Family Guy (1999) - S15E12 - Peter's Def Jam (1080p WEB-DL x265 ImE).mkv232 MB
Family Guy (1999) - S15E13 - The Finer Strings (1080p WEB-DL x265 ImE).mkv232 MB
Family Guy (1999) - S15E14 - The Dating Game (1080p WEB-DL x265 ImE).mkv233 MB
Family Guy (1999) - S15E15 - Cop and a Half-wit (1080p WEB-DL x265 ImE).mkv233 MB
Family Guy (1999) - S15E16 - Saturated Fat Guy (1080p WEB-DL x265 ImE).mkv231 MB
Family Guy (1999) - S15E17 - Peter's Lost Youth (1080p WEB-DL x265 ImE).mkv232 MB
Family Guy (1999) - S15E18 - The Peter Principal (1080p WEB-DL x265 ImE).mkv202 MB
Family Guy (1999) - S15E19 - Dearly Deported (1080p WEB-DL x265 ImE).mkv211 MB
Family Guy (1999) - S15E20 - A House Full of Peters (1080p WEB-DL x265 ImE).mkv200 MB



Loading...
Comments

There are currently no comments. Be the first one to write something !

Disclaimer: None of the files shown here are actually hosted or transmitted by this server. The links are provided solely by this site's users. The site moderation is also a service provided by the site's users. The administrator of this site (ettv.tv) cannot be held responsible for what its users post, or any other actions of its users. You may not use this site to distribute or download any material when you do not have the legal rights to do so. It is your own responsibility to adhere to these terms.

SitemapLloyd Nolan | Melty Lancer (6) | The Crucifixion 3D BluRay 3D 1080p