the good place girlsdoporn Titans S01E05 the walking dead s09e05 hindi Supernatural The big bang theory ETTV the walking dead Mayans Empire Dtone arrow español how to get away with murder s05e07 south park the beatles white 2018 star trek discovery español big bang theory 2018 ITA mr robot en español swat The Big Bang Theory s12e08 The flash Superstore S04E07 ethd supernatural s14e05 audiobook Bohemian Rhapsody wwe how to get away with murder Game Of Thrones venom Blindspot dtone Seal Team fgt Will.and.Grace.S10E06 ddr mr robot ita peaky blinders ita NCIS The Meg american horror story مجموعة أفلام عربية منوعة 0 young sheldon arrow I.Feel.Bad.S01E08 patriot ita the predator etrg big bang theory español Greys Anatomy 1080p YIFY ita 2018 The.Big.Bang.Theory.S12E08 evo Star Trek Discovery Young Sheldon S02E08 great british bake off s09e10 Doctor who uhd mission impossible Fallout etmovies It 2018 movies 2160p Supergirl Titans 
Warning! Do not Download Without a VPN!
Your IP Address is .   Location is
Download and surf securely, stream unlimited and protect your personal data!
We strongly recommend using SpyOFF VPN!
Become Anonymous with SpyOFF
ETTV Recommended TV Shows
Blindspot.S04E05.HDTV.x264-SHiTSPREAD[ettv] torrent
Midnight.Texas.S02E03.WEB.H264-MEMENTO[ettv] torrent
Blue.Bloods.S09E07.WEB.x264-TBS[ettv] torrent
Van.Helsing.S03E06.WEB.x264-TBS[ettv] torrent

ETTV Recommended Xvid
Alpha.2018.BRRip.XviD.AC3-EVO[EtMovies] torrent
Status.Update.2018.BRRip.XviD.AC3-EVO[EtMovies] torrent
Dead.Men.2018.BRRip.XviD.AC3-EVO[EtMovies] torrent
Backfire.2018.HC.HDRip.XviD.AC3-EVO[EtMovies] torrent

ETTV Recommended HD
Alpha.2018.1080p.BluRay.x264-DRONES[EtHD] torrent
Kin.2018.1080p.BluRay.x264-BLOW[EtHD] torrent
Little.Italy.2018.1080p.BluRay.x264-DRONES[EtHD] torrent
Crazy.Rich.Asians.2018.720p.BluRay.x264.DTS-HDChina[EtHD] torrent

ETTV Recommended UHD
Men.in.Black.2.2002.Multi.UHD.2160p.Bluray.x265.HDR.Atmos.7.1-DTOne torrent
Men.In.Black.3.2012.Multi.UHD.2160p.Bluray.x265.HDR.Atmos.7.1-DTOne torrent
Saving.Private.Ryan.1998.Multi.UHD.2160p.BluRay.x265.HDR.Atmos.7.1-DTOne torrent
Incredibles.2.2018.Multi.UHD.2160p.BluRay.Remux.HEVC.HDR.Atmos.7.1-DTOne torrent

ETTV Recommended Cam
The.House.with.a.Clock.in.Its.Walls.2018.NEW HDCAM.XViD.AC3-ETRG torrent
Night School 2018 NEW 720p HD-TS-NiGGA torrent
Overlord 2018 720p HDCAM-1XBET torrent
The Grinch 2018.HDCAM.XViD.AC3-ETRG torrent

ETTV Recommended Foreign
Thugs.Of.Hindostan.(2018).1-3.Desi.Pre.Rip.x264.AAC.2.0-DTOne.Exclusive torrent
Laila Majnu (2018) [HINDI - 720p - WEB HDRip - x264 - AAC - 2GB] - MAZE torrent
Natsamrat (2016) Marathi 1080p NF WEB-DL DD 5.1 H.264-TeamSunny[EtHD] torrent
The Meg 2018 BRRip Dual Audio [Hindi 5.1+English] 720p x264 ESub - mkvCinemas torrent

Social


Download Torrent "Mitron (2018) Hindi 1080p WEB-Rip x264 AC3 DD5.1 - ESUB ~ Ranvijay"

IMDB Details
Description:

N/A

Genre:

N/A

Download Torrent (Magnet)
Download Torrent (File)
Seeds: 17
Leechers: 129
Completed:
Last Checked: 10-11-2018 15:15:55


Loading...
Details
Title:Mitron (2018) Hindi 1080p WEB-Rip x264 AC3 DD5.1 - ESUB ~ Ranvijay
Description:




Mitron (2018) Hindi 1080p WEB-Rip x264 AC3 DD5.1 - ESUB ~ Ranvijay

Source                                   :NG
Format                                   : Matroska
Format version                           : Version 4 / Version 2
File size                                : 3.49 GiB
Duration                                 : 1 h 56 min
Overall bit rate                         : 4 303 kb/s
Movie name                               : Mitron (2018) Hindi 1080p WEB-Rip x264 AC3 DD5.1 - ESUB ~ Ranvijay

Video
ID                                       : 1
Format                                   : AVC
Format/Info                              : Advanced Video Codec
Duration                                 : 1 h 56 min
Bit rate                                 : 3 919 kb/s
Width                                    : 1 920 pixels
Height                                   : 816 pixels
Display aspect ratio                     : 2.35:1
Frame rate mode                          : Constant
Frame rate                               : 24.000 FPS
Color space                              : YUV
Chroma subsampling                       : 4:2:0
Bit depth                                : 8 bits
Scan type                                : Progressive
Bits/(Pixel*Frame)                       : 0.104
Stream size                              : 3.18 GiB (91%)
Title                                    : ~Ranvijay~

Audio
ID                                       : 2
Format                                   : AC-3
Format/Info                              : Audio Coding 3
Codec ID                                 : A_AC3
Duration                                 : 1 h 56 min
Bit rate mode                            : Constant
Bit rate                                 : 384 kb/s
Channel(s)                               : 6 channels
Channel positions                        : Front: L C R, Side: L R, LFE
Sampling rate                            : 48.0 kHz
Frame rate                               : 31.250 FPS (1536 SPF)
Bit depth                                : 16 bits
Compression mode                         : Lossy
Stream size                              : 319 MiB (9%)
Title                                    : ~Ranvijay~
Language                                 : Hindi
Service kind                             : Complete Main
Default                                  : Yes
Forced                                   : Yes

Text
ID                                       : 3
Format                                   : UTF-8
Codec ID                                 : S_TEXT/UTF8
Codec ID/Info                            : UTF-8 Plain Text
Duration                                 : 1 h 55 min
Bit rate                                 : 72 b/s
Count of elements                        : 2102
Stream size                              : 61.3 KiB (0%)
Title                                    : ~Ranvijay~
Language                                 : English
Default                                  : Yes
Forced                                   : Yes












Don't walk as you are king, walk as you don't care who the king is....!!

Category:Movies > HD 1080p
Lang:Hindi  Hindi
Total Size:3.51 GB
Info Hash:44c3b99e2c2b6560b8dac721267404f5703954d7
Added By:TheFighter
Date Added:10-11-2018 15:15:45

  

Files

File List: 
 File Size
Mitron (2018) Hindi 1080p WEB-Rip x264 AC3 DD5.1 - ESUB ~ Ranvijay.mkv3.49 GB
Sample - Mitron (2018) Hindi 1080p WEB-Rip ~ Ranvijay.mkv15 MB
SpecialRDP - Premium & Affordable Web Hosting Solution.url48.00 B



Loading...
Comments

There are currently no comments. Be the first one to write something !

Disclaimer: None of the files shown here are actually hosted or transmitted by this server. The links are provided solely by this site's users. The site moderation is also a service provided by the site's users. The administrator of this site (ettv.tv) cannot be held responsible for what its users post, or any other actions of its users. You may not use this site to distribute or download any material when you do not have the legal rights to do so. It is your own responsibility to adhere to these terms.

SitemapBroad City | Supernatural | Western Digital WD Red 2TB 3TB 4TB 6TB 8TB 10TB SATA Internal NAS Hard Drive HDD